<?xml version="1.0" standalone="no"?>
<!DOCTYPE svg PUBLIC "-//W3C//DTD SVG 1.1//EN" "http://www.w3.org/Graphics/SVG/1.1/DTD/svg11.dtd" >
<svg xmlns="http://www.w3.org/2000/svg">
<metadata>Generated by IcoMoon</metadata>
<defs>
<font id="icomoon" horiz-adv-x="1024">
<font-face units-per-em="1024" ascent="960" descent="-64" />
<missing-glyph horiz-adv-x="1024" />
<glyph unicode="&#x20;" horiz-adv-x="512" d="" />
<glyph unicode="&#xe900;" glyph-name="pricing-table" d="M85.333 938.667h85.333v-1024h-85.333v1024zM853.333 938.667h85.333v-1024h-85.333v1024zM341.333 213.334h341.333v-85.333h-341.333v85.333zM341.333 42.667h256v-85.333h-256v85.333zM556.245 629.547v120.192c24.021-8.363 41.088-28.843 41.088-52.821h85.333c0 70.741-54.955 129.109-126.421 139.947v59.136h-85.333v-58.923c-69.035-9.899-125.355-67.755-129.579-140.16 0-88.277 69.717-117.589 129.579-133.632v-118.827c-23.595 8.021-41.045 29.099-41.045 53.291h-85.333c0-71.637 55.125-130.432 126.379-140.245v-58.837h85.333v59.221c68.821 11.392 123.307 70.571 123.307 139.861 0 85.248-64.939 115.371-123.307 131.797zM426.581 694.4c1.493 25.301 20.267 47.275 44.331 55.637v-97.835c-35.072 11.52-44.245 22.357-44.331 42.197zM556.245 445.355v94.763c29.611-10.88 37.973-22.144 37.973-42.368 0-23.168-15.915-43.605-37.973-52.395z" />
<glyph unicode="&#xe901;" glyph-name="icon-grid" d="M42.667 640h938.667v-85.333h-938.667v85.333zM42.667 298.667h938.667v-85.333h-938.667v85.333zM298.667 896h85.333v-938.667h-85.333v938.667zM640 896h85.333v-938.667h-85.333v938.667zM128 810.667h85.333v-85.333h-85.333v85.333zM469.333 810.667h85.333v-85.333h-85.333v85.333zM810.667 810.667h85.333v-85.333h-85.333v85.333zM128 469.334h85.333v-85.333h-85.333v85.333zM469.333 469.334h85.333v-85.333h-85.333v85.333zM810.667 469.334h85.333v-85.333h-85.333v85.333zM128 128h85.333v-85.333h-85.333v85.333zM469.333 128h85.333v-85.333h-85.333v85.333zM810.667 128h85.333v-85.333h-85.333v85.333z" />
<glyph unicode="&#xe902;" glyph-name="accordion" d="M0 896v-597.333h1024v597.333h-1024zM938.667 384h-853.333v256h853.333v-256zM85.333 725.334v85.333h853.333v-85.333h-853.333zM1024-42.666h-1024v256h1024v-256zM85.333 42.667h853.333v85.333h-853.333v-85.333z" />
<glyph unicode="&#xe903;" glyph-name="blank-spacer" d="M341.333 316.331l-60.331-60.331 230.997-230.997 230.997 230.997-60.331 60.331-128-128v476.672l128-128 60.331 60.331-230.997 230.997-230.997-230.997 60.331-60.331 128 128v-476.672zM170.667 938.667h682.667v-85.333h-682.667v85.333zM170.667-0h682.667v-85.333h-682.667v85.333z" />
<glyph unicode="&#xe904;" glyph-name="blog" d="M170.667 938.667v-512h-170.667v-384c0-70.571 57.429-128 128-128h768c70.571 0 128 57.429 128 128v896h-853.333zM128-0c-23.509 0-42.667 19.115-42.667 42.667v298.667h85.333v-298.667c0-23.552-19.157-42.667-42.667-42.667zM938.667 42.667c0-23.552-19.115-42.667-42.667-42.667h-647.296c4.693 13.312 7.296 27.648 7.296 42.667v810.667h682.667v-810.667zM682.667 725.334h170.667v-85.333h-170.667v85.333zM682.667 554.667h170.667v-85.333h-170.667v85.333zM341.333 384h512v-85.333h-512v85.333zM341.333 213.334h512v-85.333h-512v85.333zM597.333 725.334h-256v-256h256v256zM512 554.667h-85.333v85.333h85.333v-85.333z" />
<glyph unicode="&#xe905;" glyph-name="boxed-content" d="M938.667-0h-853.333v853.333h853.333v-853.333zM170.667 85.334h682.667v682.667h-682.667v-682.667zM597.333 640h170.667v-85.333h-170.667v85.333zM597.333 469.334h170.667v-85.333h-170.667v85.333zM256 298.667h512v-85.333h-512v85.333zM512 384h-256v256h256v-256zM341.333 469.334h85.333v85.333h-85.333v-85.333z" />
<glyph unicode="&#xe906;" glyph-name="button" d="M170.667 725.334h-85.333v213.333h213.333v-85.333h-128zM853.333 725.334h-85.333v128h-128v85.333h213.333zM284.544-58.666l-197.205 322.347c-14.208 21.163-17.877 49.493-9.216 76.331 9.301 28.928 31.36 51.755 60.544 62.677 48.213 21.504 107.392 13.312 155.733-22.997l46.933-36.48v382.123c0 70.571 57.429 128 128 128s128-57.429 128-128v-213.333h213.333c70.571 0 128-57.429 128-128v-426.667h-85.333v426.667c0 23.509-19.115 42.667-42.667 42.667h-298.667v298.667c0 23.509-19.157 42.667-42.667 42.667s-42.667-19.157-42.667-42.667v-556.544l-184.064 143.104c-22.955 17.152-49.323 21.675-71.637 11.691-8.917-3.413-11.051-8.021-11.648-9.856l0.469-0.683 0.341-4.992 197.205-322.261-72.789-44.459z" />
<glyph unicode="&#xe907;" glyph-name="clients" d="M979.541 182.912c-11.989 40.107-62.805 115.755-168.875 115.755h-192.043c-30.208 25.771-67.712 42.667-106.624 42.667h-107.093c-45.952 53.803-115.968 85.333-191.573 85.333v42.667h-213.333v-426.667h209.067l155.648-69.845c22.315-8.363 46.805-12.672 72.661-12.672 20.395 0 41.685 2.645 63.36 8.192l490.411 175.787-11.605 38.784zM128 128h-42.667v256h42.667v-256zM476.032 49.92c-28.587-7.040-57.429-6.187-78.848 1.792l-183.851 82.517v207.104c56.704 0 106.112-24.405 135.595-66.901l12.715-18.432h150.357c26.197 0 54.101-18.603 70.571-42.667h-283.904v-85.333h384v42.667c0 14.549-2.987 28.757-7.168 42.667h135.168c29.355 0 49.408-9.6 62.763-20.736l-397.397-142.677zM704 384c82.347 0 149.333 66.987 149.333 149.333s-66.987 149.333-149.333 149.333-149.333-66.987-149.333-149.333 66.987-149.333 149.333-149.333zM704 597.334c35.285 0 64-28.715 64-64s-28.715-64-64-64-64 28.715-64 64 28.715 64 64 64zM405.333 597.334c82.347 0 149.333 66.987 149.333 149.333s-66.987 149.333-149.333 149.333-149.333-66.987-149.333-149.333 66.987-149.333 149.333-149.333zM405.333 810.667c35.285 0 64-28.715 64-64s-28.715-64-64-64-64 28.715-64 64 28.715 64 64 64z" />
<glyph unicode="&#xe908;" glyph-name="chart" d="M512 938.667c-282.325 0-512-229.675-512-512s229.675-512 512-512c282.325 0 512 229.675 512 512s-229.675 512-512 512zM936.491 469.334h-381.824v381.824c201.259-20.053 361.771-180.565 381.824-381.824zM469.333 851.158v-405.845l-297.344-275.328c-54.144 71.509-86.656 160.256-86.656 256.683 0 220.885 168.704 403.029 384 424.491zM512-0c-108.16 0-206.763 40.789-282.069 107.392l298.795 276.608h407.808c-21.547-215.296-203.691-384-424.533-384z" />
<glyph unicode="&#xe909;" glyph-name="code-snippet" d="M682.667 853.334v85.333h-341.333v-85.333h-341.333v-867.243l339.541 97.024 338.389-126.891 346.069 49.451v847.659h-341.333zM597.333 853.334v-85.333h-170.667v85.333h170.667zM938.667 79.659l-251.264-35.925-344.277 129.109-257.792-73.6v668.757h256v-85.333h341.333v85.333h256v-688.341zM341.333 572.331l-145.664-145.664 145.664-145.664 60.331 60.331-85.333 85.333 85.333 85.333zM622.336 512l85.333-85.333-85.333-85.333 60.331-60.331 145.664 145.664-145.664 145.664zM500.359 204.28l-82.782 20.71 106.099 424.092 82.782-20.71-106.099-424.092z" />
<glyph unicode="&#xe90a;" glyph-name="column" d="M725.333 853.334v-341.333h-426.667v341.333h426.667zM640 597.334v170.667h-256v-170.667h256zM42.667 938.667h85.333v-1024h-85.333v1024zM896 938.667h85.333v-1024h-85.333v1024zM298.667 256h426.667v-85.333h-426.667v85.333zM298.667 426.667h426.667v-85.333h-426.667v85.333zM298.667 85.334h341.333v-85.333h-341.333v85.333z" />
<glyph unicode="&#xe90b;" glyph-name="directory-map" d="M765.952 715.478c-16.427 140.373-137.003 223.189-253.952 223.189-110.379 0-224-73.685-250.325-199.936l-261.675-65.408v-727.979l382.293 95.573 256-85.333 385.707 96.427v727.979l-258.048-64.512zM512 853.334c82.731 0 170.667-59.819 170.667-170.667 0-73.131-94.933-201.045-170.667-283.733-75.733 82.603-170.667 210.432-170.667 283.733 0 110.848 87.936 170.667 170.667 170.667zM938.667 118.656l-296.96-74.24-256 85.333-300.373-75.093v552.021l173.952 43.52c25.301-142.208 201.088-321.835 222.549-343.253l30.165-30.208 30.165 30.165c20.267 20.224 178.133 181.333 217.131 318.933l179.371 44.843v-552.021zM597.333 682.667c0-47.128-38.205-85.333-85.333-85.333s-85.333 38.205-85.333 85.333c0 47.128 38.205 85.333 85.333 85.333s85.333-38.205 85.333-85.333z" />
<glyph unicode="&#xe90c;" glyph-name="divider" d="M512 298.667c-70.571 0-128 57.429-128 128s57.429 128 128 128c70.571 0 128-57.429 128-128s-57.429-128-128-128zM512 469.334c-23.509 0-42.667-19.157-42.667-42.667 0-23.552 19.157-42.667 42.667-42.667 23.552 0 42.667 19.115 42.667 42.667 0 23.509-19.115 42.667-42.667 42.667zM128 298.667c-70.571 0-128 57.429-128 128s57.429 128 128 128 128-57.429 128-128c0-70.571-57.429-128-128-128zM128 469.334c-23.509 0-42.667-19.157-42.667-42.667 0-23.552 19.157-42.667 42.667-42.667s42.667 19.115 42.667 42.667c0 23.509-19.157 42.667-42.667 42.667zM896 298.667c-70.571 0-128 57.429-128 128s57.429 128 128 128 128-57.429 128-128c0-70.571-57.429-128-128-128zM896 469.334c-23.552 0-42.667-19.157-42.667-42.667 0-23.552 19.115-42.667 42.667-42.667s42.667 19.115 42.667 42.667c0 23.509-19.115 42.667-42.667 42.667z" />
<glyph unicode="&#xe90d;" glyph-name="faqs" d="M512 938.667c-282.325 0-512-229.675-512-512s229.675-512 512-512 512 229.675 512 512-229.675 512-512 512zM512 256c-94.123 0-170.667 76.544-170.667 170.667s76.544 170.667 170.667 170.667 170.667-76.544 170.667-170.667-76.544-170.667-170.667-170.667zM759.68 490.283l131.371 131.371c30.251-58.496 47.616-124.715 47.616-194.987 0-70.229-17.365-136.491-47.616-194.987l-131.371 131.371c5.248 20.352 8.32 41.6 8.32 63.616s-3.072 43.221-8.32 63.616zM843.52 694.742l-121.771-121.728c-17.237 24.661-38.741 46.165-63.403 63.403l121.771 121.728c23.253-18.859 44.459-40.107 63.403-63.403zM706.901 805.718l-131.328-131.371c-20.309 5.248-41.557 8.32-63.573 8.32s-43.221-3.072-63.616-8.32l-131.371 131.371c58.496 30.251 124.715 47.616 194.987 47.616 70.229 0 136.448-17.365 194.901-47.616zM243.883 758.144l121.728-121.728c-24.661-17.28-46.080-38.741-63.36-63.36l-121.728 121.728c18.859 23.253 40.107 44.501 63.36 63.36zM132.949 621.654l131.371-131.371c-5.248-20.395-8.32-41.6-8.32-63.616s3.072-43.264 8.32-63.616l-131.413-131.371c-30.208 58.539-47.573 124.757-47.573 194.987 0 70.272 17.365 136.491 47.616 194.987zM180.523 158.592l121.728 121.771c17.237-24.661 38.699-46.123 63.36-63.36l-121.728-121.728c-23.253 18.773-44.501 40.021-63.36 63.317zM317.013 47.616l131.371 131.371c20.395-5.248 41.6-8.32 63.616-8.32s43.264 3.072 63.573 8.32l131.413-131.371c-58.496-30.251-124.757-47.616-194.987-47.616-70.272 0-136.491 17.365-194.987 47.616zM780.117 95.147l-121.771 121.771c24.619 17.28 46.080 38.741 63.36 63.317l121.728-121.771c-18.859-23.168-40.064-44.373-63.317-63.317z" />
<glyph unicode="&#xe90e;" glyph-name="galleries" d="M0 938.667v-682.667h1024v682.667h-1024zM938.667 853.334v-323.669l-170.667 170.667-304.085-304.085-256 170.667-122.581-122.581v409.003h853.333zM392.405 341.334h-289.408l115.755 115.755 173.653-115.755zM529.707 341.334l238.293 238.336 170.667-170.667v-67.669h-408.96zM426.667 554.667c70.571 0 128 57.429 128 128s-57.429 128-128 128-128-57.429-128-128 57.429-128 128-128zM426.667 725.334c23.509 0 42.667-19.157 42.667-42.667s-19.157-42.667-42.667-42.667-42.667 19.157-42.667 42.667 19.157 42.667 42.667 42.667zM256-85.333h-256v256h256v-256zM85.333-0h85.333v85.333h-85.333v-85.333zM640-85.333h-256v256h256v-256zM469.333-0h85.333v85.333h-85.333v-85.333zM1024-85.333h-256v256h256v-256zM853.333-0h85.333v85.333h-85.333v-85.333z" />
<glyph unicode="&#xe90f;" glyph-name="delete" d="M128 576v-512c0-70.4 57.6-128 128-128h512c70.4 0 128 57.6 128 128v512h-768zM768 768v128c0 38.4-25.6 64-64 64h-384c-38.4 0-64-25.6-64-64v-128h-256v-128h1024v128h-256zM640 768h-256v64h256v-64z" />
<glyph unicode="&#xe910;" glyph-name="gallery" d="M72.832-30.165l-60.331 60.331 236.885 236.885 213.333-128 262.613 262.613 286.165-286.165-60.331-60.331-225.835 225.835-249.387-249.387-213.333 128zM447.907 870.342l51.379-68.13-260.257-196.269-51.379 68.13 260.257 196.269zM576.139 870.295l260.223-196.275-51.388-68.13-260.223 196.275 51.388 68.13zM1024-85.333h-1024v768h1024v-768zM85.333-0h853.333v597.333h-853.333v-597.333zM597.333 853.334c0-47.128-38.205-85.333-85.333-85.333s-85.333 38.205-85.333 85.333c0 47.128 38.205 85.333 85.333 85.333s85.333-38.205 85.333-85.333zM426.667 298.667c-70.571 0-128 57.429-128 128s57.429 128 128 128 128-57.429 128-128-57.429-128-128-128zM426.667 469.334c-23.509 0-42.667-19.157-42.667-42.667 0-23.552 19.157-42.667 42.667-42.667s42.667 19.115 42.667 42.667c0 23.509-19.157 42.667-42.667 42.667z" />
<glyph unicode="&#xe911;" glyph-name="animated-headline" d="M795.563 597.334c35.371 31.061 57.771 76.245 57.771 128 0 95.701-74.965 170.667-170.667 170.667h-170.667v-597.333h170.667c95.701 0 170.667 74.965 170.667 170.667 0 51.755-22.4 96.939-57.771 128zM597.333 810.667h85.333c48.683 0 85.333-36.651 85.333-85.333s-36.651-85.333-85.333-85.333h-85.333v170.667zM682.667 384h-85.333v170.667h85.333c48.683 0 85.333-36.651 85.333-85.333s-36.651-85.333-85.333-85.333zM426.667 213.334v512h-85.333v-597.333h170.667c64.256 0 118.485 34.176 147.669 85.333h-233.003zM256 42.667v512h-85.333v-597.333h170.667c64.256 0 118.485 34.176 147.669 85.333h-233.003z" />
<glyph unicode="&#xe912;" glyph-name="image" d="M0 896v-938.667h1024v938.667h-1024zM938.667 810.667v-420.821l-218.325 181.845-256.555-299.264-207.787 166.229-170.667-136.533v508.544h853.333zM85.333 42.667v150.144l170.667 136.619 218.88-175.147 255.445 298.069 208.341-173.739v-235.947h-853.333zM426.667 469.334c70.571 0 128 57.429 128 128s-57.429 128-128 128-128-57.429-128-128 57.429-128 128-128zM426.667 640c23.509 0 42.667-19.157 42.667-42.667s-19.157-42.667-42.667-42.667-42.667 19.157-42.667 42.667 19.157 42.667 42.667 42.667z" />
<glyph unicode="&#xe913;" glyph-name="image-banner" d="M0 938.667v-1024h1024v1024h-1024zM938.667-0h-853.333v853.333h853.333v-853.333zM896 810.667h-768v-768h768v768zM810.667 725.334v-306.304l-90.197 63.104-215.083-215.083-213.333 128-78.72-78.72v409.003h597.333zM213.333 128v67.669l91.947 91.947 213.333-128 211.584 211.541 80.469-56.277v-186.88h-597.333zM469.333 384c70.571 0 128 57.429 128 128s-57.429 128-128 128c-70.571 0-128-57.429-128-128s57.429-128 128-128zM469.333 554.667c23.509 0 42.667-19.157 42.667-42.667s-19.157-42.667-42.667-42.667-42.667 19.157-42.667 42.667 19.157 42.667 42.667 42.667z" />
<glyph unicode="&#xe914;" glyph-name="portfolio" d="M256 682.667h-256v256h256v-256zM85.333 768h85.333v85.333h-85.333v-85.333zM256 298.667h-256v256h256v-256zM85.333 384h85.333v85.333h-85.333v-85.333zM256-85.333h-256v256h256v-256zM85.333-0h85.333v85.333h-85.333v-85.333zM640 682.667h-256v256h256v-256zM469.333 768h85.333v85.333h-85.333v-85.333zM640 298.667h-256v256h256v-256zM469.333 384h85.333v85.333h-85.333v-85.333zM640-85.333h-256v256h256v-256zM469.333-0h85.333v85.333h-85.333v-85.333zM1024 682.667h-256v256h256v-256zM853.333 768h85.333v85.333h-85.333v-85.333zM1024 298.667h-256v256h256v-256zM853.333 384h85.333v85.333h-85.333v-85.333zM1024-85.333h-256v256h256v-256zM853.333-0h85.333v85.333h-85.333v-85.333z" />
<glyph unicode="&#xe915;" glyph-name="portfolio-carousel" d="M298.667 682.667h-256v256h256v-256zM128 768h85.333v85.333h-85.333v-85.333zM298.667 341.334h-256v256h256v-256zM128 426.667h85.333v85.333h-85.333v-85.333zM640 682.667h-256v256h256v-256zM469.333 768h85.333v85.333h-85.333v-85.333zM640 341.334h-256v256h256v-256zM469.333 426.667h85.333v85.333h-85.333v-85.333zM981.333 682.667h-256v256h256v-256zM810.667 768h85.333v85.333h-85.333v-85.333zM981.333 341.334h-256v256h256v-256zM810.667 426.667h85.333v85.333h-85.333v-85.333zM271.403 123.99h-77.568l79.019 77.355-55.893 54.656-174.293-170.667 174.293-170.667 55.893 54.656-79.019 77.355h636.331l-79.019-77.355 55.893-54.656 174.293 170.667-174.293 170.667-55.893-54.656 79.019-77.355h-77.568z" />
<glyph unicode="&#xe916;" glyph-name="products" d="M298.667-85.333c-70.571 0-128 57.429-128 128s57.429 128 128 128 128-57.429 128-128-57.429-128-128-128zM298.667 85.334c-23.509 0-42.667-19.115-42.667-42.667s19.157-42.667 42.667-42.667 42.667 19.115 42.667 42.667-19.157 42.667-42.667 42.667zM810.667-85.333c-70.571 0-128 57.429-128 128s57.429 128 128 128 128-57.429 128-128-57.429-128-128-128zM810.667 85.334c-23.552 0-42.667-19.115-42.667-42.667s19.115-42.667 42.667-42.667 42.667 19.115 42.667 42.667-19.115 42.667-42.667 42.667zM889.472 213.334h-668.459l-128 640h-93.013v85.333h162.987l128-640h526.208l71.083 426.667h-546.944v85.333h647.723z" />
<glyph unicode="&#xe917;" glyph-name="counter" d="M170.667 298.667h682.667v-85.333h-682.667v85.333zM256 128h512v-85.333h-512v85.333zM213.333 810.667h-170.667v-85.333h85.333v-170.667h-85.333v-85.333h256v85.333h-85.333zM384 725.334h170.667v-42.667h-170.667v-213.333h256v85.333h-170.667v42.667h170.667v213.333h-256zM725.333 810.667v-85.333h170.667v-42.667h-170.667v-85.333h170.667v-42.667h-170.667v-85.333h256v341.333z" />
<glyph unicode="&#xe918;" glyph-name="progres-bars-v5" d="M85.333 768h469.333v-85.333h-469.333v85.333zM85.333 469.334h640v-85.333h-640v85.333zM85.333 170.667h512v-85.333h-512v85.333zM981.333 426.667l-85.333-42.667-85.333 42.667v128h170.667zM810.667 725.334l-85.333-42.667-85.333 42.667v128h170.667zM853.333 128l-85.333-42.667-85.333 42.667v128h170.667z" />
<glyph unicode="&#xe919;" glyph-name="raw-code" d="M256 195.67l-230.997 230.997 230.997 230.997 60.331-60.331-170.667-170.667 170.667-170.667zM768 195.67l-60.331 60.331 170.667 170.667-170.667 170.667 60.331 60.331 230.997-230.997zM457.548 33.556l-82.74 20.709 191.578 765.443 82.74-20.709-191.578-765.443z" />
<glyph unicode="&#xe91a;" glyph-name="recent-posts" d="M469.333 469.334h-469.333v469.333h469.333v-469.333zM85.333 554.667h298.667v298.667h-298.667v-298.667zM469.333-85.333h-469.333v469.333h469.333v-469.333zM85.333-0h298.667v298.667h-298.667v-298.667zM554.667 853.334h469.333v-85.333h-469.333v85.333zM554.667 640h469.333v-85.333h-469.333v85.333zM554.667 298.667h469.333v-85.333h-469.333v85.333zM554.667 85.334h469.333v-85.333h-469.333v85.333z" />
<glyph unicode="&#xe91b;" glyph-name="search-element" d="M938.656-60.341l-188.319 188.319 60.339 60.339 188.319-188.319-60.339-60.339zM426.667 85.334c-235.264 0-426.667 191.403-426.667 426.667s191.403 426.667 426.667 426.667c235.264 0 426.667-191.403 426.667-426.667s-191.403-426.667-426.667-426.667zM426.667 853.334c-188.203 0-341.333-153.131-341.333-341.333s153.131-341.333 341.333-341.333 341.333 153.131 341.333 341.333-153.131 341.333-341.333 341.333zM251.093 504.448l-83.712 16.725 8.405 41.856c20.523 102.741 97.109 179.328 199.851 199.851l41.856 8.363 16.725-83.669-41.813-8.363c-68.352-13.653-119.253-64.597-132.949-132.949l-8.363-41.813z" />
<glyph unicode="&#xe91c;" glyph-name="showcase" d="M682.667 213.334h-341.333v426.667h341.333v-426.667zM426.667 298.667h170.667v256h-170.667v-256zM170.667 725.334h85.333v-597.333h-85.333v597.333zM768 725.334h85.333v-597.333h-85.333v597.333zM0 810.667h85.333v-768h-85.333v768zM938.667 810.667h85.333v-768h-85.333v768z" />
<glyph unicode="&#xe91d;" glyph-name="sitemap" d="M213.333 384h256v-85.333h85.333v85.333h256v-85.333h85.333v170.667h-341.333v85.333h-85.333v-85.333h-341.333v-170.667h85.333zM512 640c70.571 0 128 57.429 128 128s-57.429 128-128 128c-70.571 0-128-57.429-128-128s57.429-128 128-128zM512 810.667c23.552 0 42.667-19.157 42.667-42.667s-19.115-42.667-42.667-42.667c-23.509 0-42.667 19.157-42.667 42.667s19.157 42.667 42.667 42.667zM170.667 213.334c-70.571 0-128-57.429-128-128s57.429-128 128-128 128 57.429 128 128-57.429 128-128 128zM170.667 42.667c-23.509 0-42.667 19.115-42.667 42.667s19.157 42.667 42.667 42.667 42.667-19.115 42.667-42.667-19.157-42.667-42.667-42.667zM512 213.334c-70.571 0-128-57.429-128-128s57.429-128 128-128c70.571 0 128 57.429 128 128s-57.429 128-128 128zM512 42.667c-23.509 0-42.667 19.115-42.667 42.667s19.157 42.667 42.667 42.667c23.552 0 42.667-19.115 42.667-42.667s-19.115-42.667-42.667-42.667zM853.333 213.334c-70.571 0-128-57.429-128-128s57.429-128 128-128 128 57.429 128 128-57.429 128-128 128zM853.333 42.667c-23.552 0-42.667 19.115-42.667 42.667s19.115 42.667 42.667 42.667 42.667-19.115 42.667-42.667-19.115-42.667-42.667-42.667z" />
<glyph unicode="&#xe91e;" glyph-name="slider" d="M896 42.667h-85.333v682.667h-682.667v85.333h768zM1024 170.667h-85.333v682.667h-682.667v85.333h768zM768-85.333h-768v768h768v-768zM85.333-0h597.333v597.333h-597.333v-597.333z" />
<glyph unicode="&#xe91f;" glyph-name="message-box" d="M810.667 938.667c-129.067 0-246.229-63.317-318.037-170.667h-321.963c-75.221 0-170.667-100.437-170.667-213.333s95.445-213.333 170.667-213.333h5.589l196.011-328.021c16.256-29.141 44.288-50.901 76.928-59.605 10.837-2.944 21.803-4.395 32.683-4.395 22.4 0 44.373 6.101 63.616 17.579 29.184 16.171 50.901 44.203 59.648 76.843 8.917 33.109 3.925 67.797-13.909 97.493l-119.339 200.107h20.779c71.296-105.813 190.933-170.667 317.995-170.667 121.685 0 213.333 165.077 213.333 384s-91.648 384-213.333 384zM682.667 554.667c0 41.685 4.096 80.683 11.008 116.011 44.117-21.589 74.325-66.048 74.325-116.011s-30.208-94.421-74.325-116.011c-6.912 35.328-11.008 74.325-11.008 116.011zM518.059 97.451c7.509-12.544 6.699-24.021 4.693-31.573-2.773-10.411-9.6-19.285-19.925-25.088-12.544-7.424-24.064-6.741-31.531-4.693-10.453 2.816-19.371 9.685-25.088 19.925l-170.496 285.312h96.768l145.579-243.883zM553.131 405.504l-12.331 21.163h-370.133c-20.011 0-85.333 54.571-85.333 128s65.323 128 85.333 128h370.133l12.331 21.163c23.595 40.405 55.211 73.216 91.776 98.091-29.995-65.877-47.573-151.381-47.573-247.253 0-95.403 17.408-180.565 47.147-246.315-36.565 24.96-68.267 57.557-91.349 97.152zM810.667 256c-32.896 0-67.925 38.144-93.013 100.395 79.787 32.725 135.68 110.293 135.68 198.272s-55.893 165.504-135.68 198.315c25.088 62.208 60.117 100.352 93.013 100.352 60.416 0 128-127.744 128-298.667 0-170.965-67.584-298.667-128-298.667z" />
<glyph unicode="&#xe920;" glyph-name="icon-box" d="M170.667 426.667h682.667v-85.333h-682.667v85.333zM256 256h512v-85.333h-512v85.333zM725.333 725.334c0 117.632-95.701 213.333-213.333 213.333s-213.333-95.701-213.333-213.333h-298.667v-810.667h1024v810.667h-298.667zM512 853.334c70.571 0 128-57.429 128-128s-57.429-128-128-128c-70.571 0-128 57.429-128 128s57.429 128 128 128zM938.667-0h-853.333v640h231.424c33.024-75.221 107.989-128 195.243-128s162.261 52.779 195.243 128h231.424v-640zM576 725.334c0-35.346-28.654-64-64-64s-64 28.654-64 64c0 35.346 28.654 64 64 64s64-28.654 64-64z" />
<glyph unicode="&#xe921;" glyph-name="parallax" d="M0 938.667v-1024h1024v1024h-1024zM938.667 384v-384h-853.333v384h213.333v85.333h-213.333v384h853.333v-384h-170.667v-85.333h170.667zM554.667 529.664v83.84l85.333-85.333 60.331 60.331-188.331 188.331-188.331-188.331 60.331-60.331 85.333 85.333v-364.843l-85.333 85.333-60.331-60.331 188.331-188.331 188.331 188.331-60.331 60.331-85.333-85.333v83.84z" />
<glyph unicode="&#xe922;" glyph-name="map" d="M894.080 112.47c54.699 76.757 87.253 170.325 87.253 271.531 0 90.112-23.424 173.44-67.755 243.115 15.488 29.568 25.088 62.635 25.088 98.219 0 117.632-95.701 213.333-213.333 213.333-70.144 0-131.925-34.475-170.837-86.869-14.507 1.109-28.715 1.536-42.496 1.536-258.773 0-469.333-210.56-469.333-469.333 0-258.731 210.56-469.333 469.333-469.333 156.373 0 294.741 77.184 380.075 195.115l1.323-0.469c0.384 1.067 0.341 2.091 0.683 3.157zM725.333 853.334c70.571 0 128-57.429 128-128s-57.429-128-128-128-128 57.429-128 128 57.429 128 128 128zM516.309 767.958c-2.816-13.781-4.309-28.032-4.309-42.624 0-103.040 73.429-189.184 170.667-209.024v-132.309h85.333v132.309c32.597 6.656 61.909 21.376 87.253 41.045 26.624-50.944 40.747-109.867 40.747-173.355 0-55.765-12.203-108.587-33.664-156.416-27.221 24.235-63.232 35.413-88.832 26.795-52.651-14.763-77.483 5.973-113.92 41.003-27.733 26.752-65.664 63.36-120.32 43.051-67.755-26.24-114.133-90.069-127.189-175.104-8.235-53.504-1.792-107.819 15.403-153.643-49.408 11.179-95.189 31.829-135.424 60.032 7.723 7.893 15.104 16.512 21.419 27.136 42.155 67.499 41.643 140.672-0.683 199.936-9.984 14.933-22.4 29.397-34.389 43.435-11.136 13.013-28.928 33.749-33.963 44.501 8.917 7.509 31.147 18.347 46.507 25.813 34.517 16.811 73.685 35.883 96.469 66.304 52.864 66.048-0.128 170.88-16.469 199.339-9.771 19.499-21.675 35.2-34.304 49.024 52.651 27.179 112.171 42.795 175.36 42.795 1.493 0 2.816-0.043 4.309-0.043zM128 384c0 117.376 53.12 222.507 136.405 293.035 12.16-11.776 22.955-24.448 31.36-41.173 25.216-44.032 36.437-91.477 24.235-106.795-11.264-15.019-40.533-29.269-66.389-41.856-44.885-21.845-95.744-46.635-95.744-98.944 0-38.571 28.373-71.637 55.808-103.595 10.837-12.672 21.077-24.576 28.928-36.352 28.629-40.107 15.061-79.872-1.835-106.923-3.371-5.589-7.339-10.411-12.587-15.147-61.995 68.224-100.181 158.507-100.181 257.749zM528.512 0.854c-26.88 31.573-40.875 93.355-32.213 149.504 4.907 31.744 20.992 88.107 73.557 108.672 5.803-1.152 20.651-15.531 30.507-25.088 34.56-33.237 91.989-88.491 193.493-62.336 4.181-1.152 12.971-5.845 17.92-13.824 1.835-2.901 2.816-5.888 3.029-9.088-67.157-86.187-170.027-142.848-286.293-147.84z" />
<glyph unicode="&#xe923;" glyph-name="multilayer-parallax" d="M542.677 554.667h-82.773l84.267 85.333-59.605 60.331-185.899-188.331 185.899-188.331 59.605 60.331-84.267 85.333h232.192l-84.267-85.333 59.605-60.331 185.899 188.331-185.899 188.331-59.605-60.331 84.267-85.333h-82.773zM1024 896h-896v-85.333h-128v-810.667h938.667v128h85.333v768zM853.333 85.334h-768v640h42.667v-597.333h725.333v-42.667zM938.667 213.334h-725.333v597.333h725.333v-597.333z" />
<glyph unicode="&#xe924;" glyph-name="social-grid" d="M938.667 896h-170.667c-23.595 0-42.667-19.115-42.667-42.667v-170.667c0-23.552 19.072-42.667 42.667-42.667h170.667c23.595 0 42.667 19.115 42.667 42.667v170.667c0 23.552-19.072 42.667-42.667 42.667zM896 725.334h-85.333v85.333h85.333v-85.333zM938.667 554.667h-170.667c-23.595 0-42.667-19.115-42.667-42.667v-170.667c0-23.595 19.072-42.667 42.667-42.667h170.667c23.595 0 42.667 19.072 42.667 42.667v170.667c0 23.552-19.072 42.667-42.667 42.667zM896 384h-85.333v85.333h85.333v-85.333zM938.667 213.334h-170.667c-23.595 0-42.667-19.072-42.667-42.667v-170.667c0-23.595 19.072-42.667 42.667-42.667h170.667c23.595 0 42.667 19.072 42.667 42.667v170.667c0 23.595-19.072 42.667-42.667 42.667zM896 42.667h-85.333v85.333h85.333v-85.333zM597.333 213.334h-170.667c-23.552 0-42.667-19.072-42.667-42.667v-170.667c0-23.595 19.115-42.667 42.667-42.667h170.667c23.595 0 42.667 19.072 42.667 42.667v170.667c0 23.595-19.072 42.667-42.667 42.667zM554.667 42.667h-85.333v85.333h85.333v-85.333zM256 213.334h-170.667c-23.552 0-42.667-19.072-42.667-42.667v-170.667c0-23.595 19.115-42.667 42.667-42.667h170.667c23.552 0 42.667 19.072 42.667 42.667v170.667c0 23.595-19.115 42.667-42.667 42.667zM213.333 42.667h-85.333v85.333h85.333v-85.333zM597.333 896h-512c-23.552 0-42.667-19.115-42.667-42.667v-512c0-23.595 19.115-42.667 42.667-42.667h512c23.595 0 42.667 19.072 42.667 42.667v512c0 23.552-19.072 42.667-42.667 42.667zM554.667 810.667v-85.333h-85.333v85.333h85.333zM426.667 597.334c0-47.061-38.272-85.333-85.333-85.333s-85.333 38.272-85.333 85.333 38.272 85.333 85.333 85.333 85.333-38.272 85.333-85.333zM128 384v256h48.725c-3.541-13.696-6.059-27.861-6.059-42.667 0-94.123 76.544-170.667 170.667-170.667s170.667 76.544 170.667 170.667c0 14.805-2.517 28.971-6.059 42.667h48.725v-256h-426.667z" />
<glyph unicode="&#xe925;" glyph-name="products-mini" d="M298.667-85.333c-70.571 0-128 57.429-128 128s57.429 128 128 128 128-57.429 128-128-57.429-128-128-128zM298.667 85.334c-23.509 0-42.667-19.115-42.667-42.667s19.157-42.667 42.667-42.667 42.667 19.115 42.667 42.667-19.157 42.667-42.667 42.667zM810.667-85.333c-70.571 0-128 57.429-128 128s57.429 128 128 128 128-57.429 128-128-57.429-128-128-128zM810.667 85.334c-23.552 0-42.667-19.115-42.667-42.667s19.115-42.667 42.667-42.667 42.667 19.115 42.667 42.667-19.115 42.667-42.667 42.667zM896 213.334h-674.987l-128 640h-93.013v85.333h162.987l128-640h605.013zM384 640h128v-85.333h-128v85.333zM384 810.667h128v-85.333h-128v85.333zM384 469.334h128v-85.333h-128v85.333zM597.333 810.667v-85.333h377.515l14.208 85.333zM597.333 640v-85.333h349.056l14.208 85.333zM597.333 469.334v-85.333h320.597l14.208 85.333z" />
<glyph unicode="&#xe926;" glyph-name="latest-tweets" d="M341.333 768h426.667v-85.333h-426.667v85.333zM341.333 597.334h341.333v-85.333h-341.333v85.333zM640 238.336l-102.997 102.997h-238.336c-70.571 0-128 57.429-128 128v341.333c0 70.571 57.429 128 128 128h512c70.571 0 128-57.429 128-128v-341.333c0-70.571-57.429-128-128-128h-67.669l-102.997-102.997zM298.667 853.334c-23.509 0-42.667-19.157-42.667-42.667v-341.333c0-23.509 19.157-42.667 42.667-42.667h273.664l67.669-67.669 67.669 67.669h102.997c23.552 0 42.667 19.157 42.667 42.667v341.333c0 23.509-19.115 42.667-42.667 42.667h-512zM512 216.619c-16.043-7.936-31.957-10.539-50.645-13.141 18.688 10.496 32 26.24 37.291 47.232-16.043-10.496-34.688-15.744-56.021-20.992-15.915 15.787-40.021 26.283-63.957 26.283-45.312 0-85.333-39.381-85.333-86.656 0-7.893 0-13.141 2.688-18.347-72.021 2.688-138.709 36.736-181.376 89.259-7.979-13.099-10.667-26.24-10.667-44.672 0-28.843 16.043-55.040 40.021-70.869-13.312 0-26.667 5.248-40.021 10.453v0c0-41.899 29.355-76.075 69.376-84.011-8.021-2.56-16.043-2.56-23.979-2.56-5.376 0-10.667 0-16 2.56 10.624-34.133 42.667-60.416 82.645-60.416-29.355-23.595-66.688-36.693-109.355-36.693-8.021 0-13.312 0-21.333 0 40.021-23.595 85.333-39.381 133.333-39.381 160 0 248.021 131.285 248.021 244.224 0 2.603 0 7.893 0 10.453 18.645 13.099 34.688 28.885 45.312 47.275z" />
<glyph unicode="&#xe927;" glyph-name="spb" d="M944.299 706.347c-42.965 64.512-143.872 67.712-260.608 34.603-35.413 116.395-93.013 197.717-171.691 197.717-73.259 0-132.907-70.613-170.667-198.997-124.245 34.688-220.032 22.869-262.187-38.485-47.061-74.496 3.925-177.451 97.323-276.779-90.709-97.749-139.691-198.357-93.824-271.019 23.424-40.064 69.973-60.416 134.229-60.416 36.096 0 77.867 6.528 124.245 19.456 34.688-112.939 91.819-197.76 170.88-197.76 78.549 0 136.064 81.067 171.52 197.163 44.757-12.331 87.424-19.797 125.013-19.797 58.965 0 106.155 16.939 132.352 56.277 41.003 66.645 6.443 161.408-98.219 275.029 92.331 99.883 148.096 208.725 101.632 283.008zM872.619 660.054c16.725-26.709-22.187-121.472-147.285-233.003-0.043 79.573-7.253 159.445-21.376 231.68 93.227 26.624 155.179 21.461 168.661 1.323zM298.923 424.662c40.704 36.48 89.472 74.24 146.645 111.232 64.043 41.472 123.435 71.851 176.683 93.867 10.88-58.709 17.749-126.976 17.749-203.093 0-76.8-6.997-145.664-18.048-204.715-54.229 22.101-114.987 52.949-180.651 95.445-55.083 35.627-102.571 72.064-142.379 107.264zM512 853.334c27.947 0 63.701-51.499 90.325-140.16-30.379-12.032-61.141-26.155-91.648-41.643-30.421 15.531-60.117 29.141-88.704 40.576 27.776 96.427 64.896 141.227 90.027 141.227zM150.357 654.208c20.651 30.208 122.325 30.72 269.44-33.835-6.869-4.267-13.824-8.405-20.565-12.8-57.173-37.035-112.64-79.147-161.621-123.221-73.429 78.891-103.253 144.512-87.253 169.856zM155.563 197.718c-16.256 25.728 12.032 89.813 82.56 166.997 21.205-18.859 43.563-37.291 66.816-55.168 3.157-38.357 8.405-76.885 15.701-114.133-101.248-28.672-154.496-15.915-165.077 2.304zM512-0c-31.573 0-88.747 81.579-113.664 243.669 65.109-41.813 135.339-78.123 203.605-104.789-26.624-87.851-62.165-138.88-89.941-138.88zM869.035 194.347c-13.611-20.437-74.112-26.112-165.333-0.811 7.467 37.803 12.843 77.781 16.427 118.699 21.163 16.341 41.813 33.536 61.739 51.456 78.507-85.717 101.12-146.645 87.168-169.344zM597.333 426.667c0-47.128-38.205-85.333-85.333-85.333s-85.333 38.205-85.333 85.333c0 47.128 38.205 85.333 85.333 85.333s85.333-38.205 85.333-85.333z" />
<glyph unicode="&#xe928;" glyph-name="promo-bar" d="M938.667 298.667h-341.333v256h341.333v-256zM682.667 384h170.667v85.333h-170.667v-85.333zM0 896h1024v-85.333h-1024v85.333zM85.333 554.667h426.667v-85.333h-426.667v85.333zM85.333 384h341.333v-85.333h-341.333v85.333zM0 42.667h1024v-85.333h-1024v85.333z" />
<glyph unicode="&#xe929;" glyph-name="row" d="M426.667 213.334h-341.333v426.667h341.333v-426.667zM170.667 298.667h170.667v256h-170.667v-256zM0 896h1024v-85.333h-1024v85.333zM512 469.334h426.667v-85.333h-426.667v85.333zM512 640h426.667v-85.333h-426.667v85.333zM512 298.667h341.333v-85.333h-341.333v85.333zM0 42.667h1024v-85.333h-1024v85.333z" />
<glyph unicode="&#xe92a;" glyph-name="save" d="M748.8 940.8c-12.8 12.8-25.6 19.2-44.8 19.2h-64v-192c0-38.4-25.6-64-64-64h-320c-38.4 0-64 25.6-64 64v192h-128c-38.4 0-64-25.6-64-64v-896c0-38.4 25.6-64 64-64h896c38.4 0 64 25.6 64 64v640c0 19.2-6.4 32-19.2 44.8l-256 256zM832 64h-640v192c0 38.4 25.6 64 64 64h512c38.4 0 64-25.6 64-64v-192zM448 960h128v-192h-128v192z" />
<glyph unicode="&#xe92b;" glyph-name="super-search" d="M750.325 127.99l60.339 60.339 188.319-188.319-60.339-60.339-188.319 188.319zM426.667 938.667c-235.264 0-426.667-191.403-426.667-426.667s191.403-426.667 426.667-426.667c235.264 0 426.667 191.403 426.667 426.667s-191.403 426.667-426.667 426.667zM426.667 170.667c-188.203 0-341.333 153.131-341.333 341.333s153.131 341.333 341.333 341.333 341.333-153.131 341.333-341.333-153.131-341.333-341.333-341.333zM469.333 682.667h-85.333v-128h-128v-85.333h128v-128h85.333v128h128v85.333h-128z" />
<glyph unicode="&#xe92c;" glyph-name="swift-slider" d="M1024 554.667l-85.333 85.333v213.333h-682.667v85.333h768zM896 682.667l-42.667 42.667h-725.333v85.333h768zM725.333-85.333h-725.333v768h725.333l-85.333-85.333h-554.667v-597.333h554.667zM1024 412.416l-213.333 227.584-213.333-227.584 106.667-113.749-106.667-113.792 213.333-227.541 213.333 227.541-106.667 113.792z" />
<glyph unicode="&#xe92d;" glyph-name="testimonials" d="M85.333-0h-85.333v85.333h85.333c23.509 0 42.667 19.115 42.667 42.667v17.323l-71.637 39.083c-28.203 16.085-44.587 44.245-44.629 75.733-0.043 31.531 16.384 59.733 43.861 75.563l72.405 33.067v90.88l130.005 33.92c0.939 0.043 1.067 1.195 0.128 2.773l-130.133 125.525v274.133h85.333v-237.867l109.568-106.027c20.309-24.363 26.795-56.277 17.28-85.376-9.045-27.691-31.872-48.597-61.056-55.893l-65.792-17.067v-79.829l-118.912-54.101 118.912-63.829v-68.011c0-70.571-57.429-128-128-128zM896 213.334h-640l170.667 227.541v241.792c0 70.571 57.429 128 128 128h341.333c70.571 0 128-57.429 128-128v-341.333c0-70.571-57.429-128-128-128zM426.667 298.667h469.333c23.552 0 42.667 19.115 42.667 42.667v341.333c0 23.509-19.115 42.667-42.667 42.667h-341.333c-23.509 0-42.667-19.157-42.667-42.667v-270.208l-85.333-113.792zM597.333 640h256v-85.333h-256v85.333zM597.333 469.334h170.667v-85.333h-170.667v85.333z" />
<glyph unicode="&#xe92e;" glyph-name="testimonials-carousel" d="M298.667 768h426.667v-85.333h-426.667v85.333zM298.667 597.334h341.333v-85.333h-341.333v85.333zM335.403 123.99h-77.568l79.019 77.355-55.893 54.656-174.293-170.667 174.293-170.667 55.893 54.656-79.019 77.355h508.331l-79.019-77.355 55.893-54.656 174.293 170.667-174.293 170.667-55.893-54.656 79.019-77.355h-77.568zM512 238.336l-102.997 102.997h-153.003c-70.571 0-128 57.429-128 128v341.333c0 70.571 57.429 128 128 128h512c70.571 0 128-57.429 128-128v-341.333c0-70.571-57.429-128-128-128h-153.003l-102.997-102.997zM256 853.334c-23.509 0-42.667-19.157-42.667-42.667v-341.333c0-23.509 19.157-42.667 42.667-42.667h188.331l67.669-67.669 67.669 67.669h188.331c23.552 0 42.667 19.157 42.667 42.667v341.333c0 23.509-19.115 42.667-42.667 42.667h-512z" />
<glyph unicode="&#xe92f;" glyph-name="testimonials-slider" d="M896 213.334h-85.333v512h-682.667v85.333h768zM1024 341.334h-85.333v512h-682.667v85.333h768zM170.667 512h426.667v-85.333h-426.667v85.333zM170.667 341.334h341.333v-85.333h-341.333v85.333zM384-60.33l-145.664 145.664h-238.336v597.333h768v-597.333h-238.336l-145.664-145.664zM85.333 170.667h188.331l110.336-110.336 110.336 110.336h188.331v426.667h-597.333v-426.667z" />
<glyph unicode="&#xe930;" glyph-name="toggle" d="M1024 298.667h-1024v256h1024v-256zM85.333 384h853.333v85.333h-853.333v-85.333zM1024 640h-1024v256h1024v-256zM85.333 725.334h853.333v85.333h-853.333v-85.333zM1024-42.666h-1024v256h1024v-256zM85.333 42.667h853.333v85.333h-853.333v-85.333z" />
<glyph unicode="&#xe931;" glyph-name="tweet-slider" d="M896 42.667h-85.333v682.667h-682.667v85.333h768zM1024 170.667h-85.333v682.667h-682.667v85.333h768zM768-85.333h-768v768h768v-768zM85.333-0h597.333v597.333h-597.333v-597.333zM597.333 429.952c-16.043-7.936-31.957-10.539-50.645-13.141 18.688 10.539 32 26.283 37.291 47.275-16.043-10.496-34.688-15.787-56.021-21.035-15.915 15.744-40.021 26.283-63.957 26.283-45.312 0-85.333-39.381-85.333-86.656 0-7.893 0-13.141 2.688-18.347-72.021 2.688-138.709 36.736-181.376 89.259-7.979-13.141-10.667-26.283-10.667-44.672 0-28.843 16.043-55.040 40.021-70.869-13.312 0-26.667 5.248-40.021 10.453v0c0-41.899 29.355-76.075 69.376-84.011-8.021-2.56-16.043-2.56-23.979-2.56-5.376 0-10.667 0-16 2.56 10.624-34.133 42.667-60.416 82.688-60.416-29.397-23.595-66.731-36.693-109.397-36.693-8.021 0-13.312 0-21.333 0 40.021-23.595 85.333-39.381 133.333-39.381 160 0 248.021 131.285 248.021 244.224 0 2.603 0 7.893 0 10.453 18.645 13.099 34.688 28.885 45.312 47.275z" />
<glyph unicode="&#xe932;" glyph-name="video" d="M1024-85.333h-1024v1024h1024v-1024zM85.333-0h853.333v853.333h-853.333v-853.333zM341.333 304.299v500.779l375.595-250.411-375.595-250.368zM426.667 645.59v-181.888l136.405 90.965-136.405 90.923zM725.333 213.334h170.667v-85.333h-170.667v85.333zM128 213.334h384v-85.333h-384v85.333zM554.667 42.667c-70.571 0-128 57.429-128 128s57.429 128 128 128 128-57.429 128-128-57.429-128-128-128zM554.667 213.334c-23.509 0-42.667-19.115-42.667-42.667s19.157-42.667 42.667-42.667c23.552 0 42.667 19.115 42.667 42.667s-19.115 42.667-42.667 42.667z" />
<glyph unicode="&#xe933;" glyph-name="icon-default-editor" d="M0 896h1024v-128h-1024v128zM0 640h640v-128h-640v128zM0 384h1024v-128h-1024v128zM0 128h640v-128h-640v128z" />
<glyph unicode="&#xe934;" glyph-name="icon-page-builder" d="M960 512c-38.4 0-64-25.6-64-64v-384h-768v768h384c38.4 0 64 25.6 64 64s-25.6 64-64 64h-448c-38.4 0-64-25.6-64-64v-896c0-38.4 25.6-64 64-64h896c38.4 0 64 25.6 64 64v448c0 38.4-25.6 64-64 64zM915.2 940.8l-512-512c-25.6-25.6-25.6-64 0-89.6 12.8-12.8 25.6-19.2 44.8-19.2s32 6.4 44.8 19.2l512 512c25.6 25.6 25.6 64 0 89.6s-64 25.6-89.6 0z" />
<glyph unicode="&#xe935;" glyph-name="vis-desktop" d="M960 960h-896c-38.4 0-64-25.6-64-64v-704c0-38.4 25.6-64 64-64h320v-64h-192v-128h640v128h-192v64h320c38.4 0 64 25.6 64 64v704c0 38.4-25.6 64-64 64zM896 832v-448h-768v448h768z" />
<glyph unicode="&#xe936;" glyph-name="vis-tablet" d="M832 960h-640c-70.4 0-128-57.6-128-128v-768c0-70.4 57.6-128 128-128h640c70.4 0 128 57.6 128 128v768c0 70.4-57.6 128-128 128zM576 64h-128v128h128v-128zM832 320h-640v512h640v-512z" />
<glyph unicode="&#xe937;" glyph-name="vis-phone" d="M768 960h-512c-70.4 0-128-57.6-128-128v-768c0-70.4 57.6-128 128-128h512c70.4 0 128 57.6 128 128v768c0 70.4-57.6 128-128 128zM576 64h-128v128h128v-128zM768 320h-512v384h512v-384z" />
<glyph unicode="&#xe94c;" glyph-name="redo" d="M192.128 0c-0.384 5.056 0 314.88 0 320 0 108.8 83.2 192 192 192h256v-256l320 320-320 320v-256h-256c-179.2 0-320-140.736-320-320 0-5.12-0.256-314.944 0-320z" />
<glyph unicode="&#xe94d;" glyph-name="add-section" d="M832 384h-128v-128h-128v-128h128v-128h128v128h128v128h-128zM896 896h-768c-35.328 0-64-28.672-64-64v-768c0-35.392 28.672-64 64-64h320v128h-256v384h768v320c0 35.328-28.608 64-64 64zM192 640v128h640v-128h-640z" />
<glyph unicode="&#xe94e;" glyph-name="add-tab" d="M704 384v-128h-128v-128h128v-128h128v128h128v128h-128v128zM448 0h-320c-35.328 0-64 28.608-64 64v768c0 35.328 28.672 64 64 64h320c35.328 0 64-28.672 64-64v-192h384c35.392 0 64-28.672 64-64v-64h-512c-35.328 0-64 28.672-64 64v192h-192v-640h256v-128z" />
<glyph unicode="&#xe94f;" glyph-name="directory-user-listing" d="M981.333 640v170.667h-85.333c0 70.571-57.429 128-128 128h-725.333v-1024h725.333c70.571 0 128 57.429 128 128v384h85.333v170.667h-85.333v42.667h85.333zM810.667 42.667c0-23.552-19.115-42.667-42.667-42.667h-640v853.333h640c23.552 0 42.667-19.157 42.667-42.667v-768zM631.979 400.683l-55.040 42.539c12.757 19.883 20.395 43.392 20.395 68.779v42.667c0 70.571-57.429 128-128 128s-128-57.429-128-128v-42.667c0-26.069 7.936-50.347 21.376-70.571l-56.533-41.173c-31.445-25.088-50.176-63.104-50.176-101.589v-85.333h426.667v85.333c0 38.485-18.731 76.501-50.688 102.016zM426.667 554.667c0 23.509 19.157 42.667 42.667 42.667s42.667-19.157 42.667-42.667v-42.667c0-23.509-19.157-42.667-42.667-42.667s-42.667 19.157-42.667 42.667v42.667zM341.333 298.667c0 12.629 6.955 25.984 16.555 33.749l77.824 56.619c10.795-2.944 21.931-5.035 33.621-5.035 12.885 0 25.088 2.517 36.821 6.059l73.088-56.448c11.179-8.96 18.091-22.315 18.091-34.944h-256z" />
<glyph unicode="&#xe968;" glyph-name="third-party" d="M512 213.334h-89.643c-19.84 97.237-105.984 170.667-209.024 170.667-117.632 0-213.333-95.701-213.333-213.333s95.701-213.333 213.333-213.333c103.040 0 189.184 73.429 209.024 170.667h89.643c23.595 0 42.667 19.072 42.667 42.667s-19.072 42.667-42.667 42.667zM213.333 42.667c-70.571 0-128 57.429-128 128s57.429 128 128 128 128-57.429 128-128-57.429-128-128-128zM810.667 384c-24.448 0-47.573-4.992-69.504-12.587l-47.744 77.611c-12.331 20.096-38.571 26.368-58.709 13.995-20.053-12.373-26.325-38.613-13.952-58.709l47.019-76.373c-42.965-39.040-70.443-94.805-70.443-157.269 0-117.632 95.701-213.333 213.333-213.333s213.333 95.701 213.333 213.333-95.701 213.333-213.333 213.333zM810.667 42.667c-70.571 0-128 57.429-128 128 0 42.88 21.376 80.725 53.845 103.936 3.883 1.067 7.637 2.645 11.221 4.821 2.091 1.28 3.371 3.243 5.163 4.821 17.451 8.917 36.864 14.421 57.771 14.421 70.571 0 128-57.429 128-128s-57.429-128-128-128zM370.304 524.416l-47.829-74.709c-12.715-19.84-6.912-46.251 12.928-58.923 7.125-4.608 15.061-6.784 22.955-6.784 14.080 0 27.819 6.955 35.968 19.669l49.792 77.781c21.461-7.296 43.989-12.117 67.883-12.117 117.632 0 213.333 95.701 213.333 213.333s-95.701 213.333-213.333 213.333-213.333-95.701-213.333-213.333c0-63.061 28.032-119.168 71.637-158.251zM512 810.667c70.571 0 128-57.429 128-128s-57.429-128-128-128-128 57.429-128 128 57.429 128 128 128z" />
<glyph unicode="&#xe9b5;" glyph-name="tabs" d="M768 853.334h256v-85.333h-256v85.333zM426.667 853.334h256v-85.333h-256v85.333zM938.667 682.667h-597.333v170.667h-341.333v-853.333h1024v682.667h-85.333zM85.333 85.334v682.667h170.667v-170.667h682.667v-512h-853.333z" />
<glyph unicode="&#xe9b6;" glyph-name="team" d="M512 341.334c-143.531 0-256 112.469-256 256v85.333c0 143.531 112.469 256 256 256s256-112.469 256-256v-85.333c0-143.531-112.469-256-256-256zM512 853.334c-95.701 0-170.667-74.965-170.667-170.667v-85.333c0-95.701 74.965-170.667 170.667-170.667s170.667 74.965 170.667 170.667v85.333c0 95.701-74.965 170.667-170.667 170.667zM1024-85.333h-1024v42.667c0 164.651 133.973 298.667 298.667 298.667h426.667c164.651 0 298.667-134.016 298.667-298.667v-42.667zM89.643-0h844.757c-19.84 97.237-105.984 170.667-209.024 170.667h-426.709c-103.040 0-189.227-73.429-209.024-170.667z" />
<glyph unicode="&#xe9b7;" glyph-name="text-block" d="M512 853.334h512v-85.333h-512v85.333zM512 597.334h512v-85.333h-512v85.333zM0 341.334h1024v-85.333h-1024v85.333zM0 85.334h1024v-85.333h-1024v85.333zM361.6 498.646l78.421 33.621-155.904 363.733h-98.901l-155.904-363.733 78.421-33.621 42.283 98.688h169.301l42.283-98.688zM186.624 682.667l48.043 112.128 48.043-112.128h-96.085z" />
<glyph unicode="&#xe9b8;" glyph-name="templates" d="M896-85.333h-896v1024h896v-1024zM85.333-0h725.333v853.333h-725.333v-853.333zM768 554.667h-640v256h640v-256zM213.333 640h469.333v85.333h-469.333v-85.333zM426.667 298.667h-298.667v213.333h298.667v-213.333zM213.333 384h128v42.667h-128v-42.667zM768 42.667h-298.667v469.333h298.667v-469.333zM554.667 128h128v298.667h-128v-298.667zM426.667 42.667h-298.667v213.333h298.667v-213.333zM213.333 128h128v42.667h-128v-42.667z" />
<glyph unicode="&#xe9b9;" glyph-name="swift-template" d="M426.667 512h-298.667v-213.333h298.667v213.333zM341.333 384h-128v42.667h128v-42.667zM128 42.667h298.667v213.333h-298.667v-213.333zM213.333 170.667h128v-42.667h-128v42.667zM810.667 128v-128h-725.333v853.333h512l85.333 85.333h-682.667v-1024h896v298.667zM554.667 640h-341.333v85.333h256l85.333 85.333h-426.667v-256h426.667zM725.333 42.667h42.667v128l-85.333 85.333v-128h-128v298.667l-85.333 85.333v-469.333h213.333zM1024 711.083l-213.333 227.584-213.333-227.584 106.667-113.749-106.667-113.792 213.333-227.541 213.333 227.541-106.667 113.792z" />
<glyph unicode="&#xea44;" glyph-name="tour" d="M0 512h170.667v-85.333h-170.667v85.333zM0 341.334h170.667v-85.333h-170.667v85.333zM0 170.667h170.667v-85.333h-170.667v85.333zM0 853.334v-256h256v-597.333h768v853.333h-1024zM938.667 85.334h-597.333v597.333h-256v85.333h853.333v-682.667z" />
<glyph unicode="&#xea45;" glyph-name="widget-area" d="M682.667 640h-682.667v256h682.667v-256zM85.333 725.334h512v85.333h-512v-85.333zM682.667 298.667h-682.667v256h682.667v-256zM85.333 384h512v85.333h-512v-85.333zM682.667-42.666h-682.667v256h682.667v-256zM85.333 42.667h512v85.333h-512v-85.333zM1024-42.666h-256v938.667h256v-938.667zM853.333 42.667h85.333v768h-85.333v-768z" />
<glyph unicode="&#xea46;" glyph-name="frequently-used" d="M512-64c-282.304 0-512 229.632-512 512 0 282.304 229.696 512 512 512 282.368 0 512-229.696 512-512 0-282.368-229.632-512-512-512zM512 846.272c-219.584 0-398.272-178.688-398.272-398.272 0-219.52 178.688-398.272 398.272-398.272 219.52 0 398.272 178.752 398.272 398.272 0 219.584-178.752 398.272-398.272 398.272zM704 640.192c-52.992 52.992-122.496 79.808-192.256 79.808v-272.128l-192.192-192.256c106.112-106.176 278.4-106.176 384.96 0 106.048 106.176 106.048 278.464-0.512 384.576z" />
<glyph unicode="&#xea47;" glyph-name="search" d="M809.601 240c57.6 76.8 89.6 166.4 89.6 268.8 0 249.6-198.4 454.4-448 454.4s-454.4-204.8-454.4-454.4c0-249.6 204.8-454.4 454.4-454.4 102.4 0 198.4 32 268.8 89.6l192-192c12.8-12.8 32-19.2 44.8-19.2s32 6.4 44.8 19.2c25.6 25.6 25.6 64 0 89.6l-192 198.4zM451.201 188.8c-179.2 0-326.4 140.8-326.4 320s147.2 326.4 326.4 326.4 326.4-147.2 326.4-326.4-147.2-320-326.4-320z" />
<glyph unicode="&#xea48;" glyph-name="close" d="M960 805.76l-90.24 90.24-357.76-357.76-357.76 357.76-90.24-90.24 357.76-357.76-357.76-357.76 90.24-90.24 357.76 357.76 357.76-357.76 90.24 90.24-357.76 357.76 357.76 357.76z" />
<glyph unicode="&#xea49;" glyph-name="drag-handle" d="M320 960h128v-1024h-128v1024zM576 960h128v-1024h-128v1024z" />
<glyph unicode="&#xea4a;" glyph-name="undo" d="M959.872 0c0.256 5.056 0 314.88 0 320 0 179.264-140.8 320-320 320h-256v256l-320-320 320-320v256h256c108.8 0 192-83.2 192-192 0-5.12 0.384-314.944 0-320z" />
<glyph unicode="&#xea4b;" glyph-name="fullscreen-exit" d="M63.988 192h192v-192h128v320h-320v-128zM255.988 704h-192v-128h320v320h-128v-192zM639.988 0.001h128v192h192v128h-320v-320zM767.988 704v192h-128v-320h320v128h-192z" />
<glyph unicode="&#xea4c;" glyph-name="fullscreen" d="M192 320h-128v-320h320v128h-192.001v192.001zM64.001 576h128v192.001h192.001v128h-320v-320zM832 127.999h-192.001v-128h320v320h-128v-192.001zM640 895.999v-128h192.001v-192.001h128v320h-320z" />
<glyph unicode="&#xea4d;" glyph-name="expand-more" d="M805.76 685.12l-293.76-293.12-293.76 293.12-90.24-90.24 384-384 384 384-90.24 90.24z" />
<glyph unicode="&#xea4e;" glyph-name="expand-less" d="M512 685.12l-384-384 90.24-90.24 293.76 293.12 293.76-293.12 90.24 90.24-384 384z" />
<glyph unicode="&#xea4f;" glyph-name="preview" d="M512 64c230.4 0 409.6 198.4 486.4 313.6 32 44.8 32 102.4 0 147.2-76.8 108.8-256 307.2-486.4 307.2s-409.6-198.4-486.4-313.6c-32-44.8-32-102.4 0-140.8 76.8-115.2 256-313.6 486.4-313.6zM512 640c108.8 0 192-83.2 192-192s-83.2-192-192-192-192 83.2-192 192 83.2 192 192 192z" />
<glyph unicode="&#xea50;" glyph-name="add" d="M576 512v384h-128v-384h-384v-128h384v-384h128v384h384v128z" />
<glyph unicode="&#xea51;" glyph-name="duplicate" d="M640 704h-512c-38.4 0-64-25.6-64-64v-640c0-38.4 25.6-64 64-64h512c38.4 0 64 25.6 64 64v640c0 38.4-25.6 64-64 64zM896 960h-640v-128h576v-704h128v768c0 38.4-25.6 64-64 64z" />
<glyph unicode="&#xea52;" glyph-name="edit" d="M1004.641 727.296c22.144 22.144 22.144 57.984 0 80.128l-133.248 133.12c-22.208 22.272-57.984 22.272-80.128 0l-87.424-87.488 213.312-213.312 87.488 87.552zM-2.783 146.432v-213.248h213.312l616.064 616.064-213.248 213.248z" />
<glyph unicode="&#xea53;" glyph-name="info" d="M512 960c-282.752 0-512-229.248-512-512 0-282.816 229.248-512 512-512s512 229.184 512 512c0 282.752-229.184 512-512 512zM576 128h-128v384h128v-384zM576 640h-128v128h128v-128z" />
</font>
</defs>
</svg>
